Foro CLABA

Únete a la gran comunidad de amantes de los juegos y películas retro.

¡Comparte tu pasión con nosotros!

Arrastra tu imagen para posicionarla

Descarga Animalympics (1980 - Latino)

UCrest

UCrest

«One Life To Live»
Registrado
11 Ene 2021
Mensajes
318
Animalympics (1980 - Latino)
Animalympics - 1980 - The Movie.jpg

El reino animal organiza sus propios juegos olímpicos.
Director: Steven Lisberger
Escritores: Steven Lisberger (desarrollo de personajes), Roger Allers (desarrollo de personajes), entre otros.
Estrellas: Gilda Radner, Billy Crystal, Harry Shearer, entre otros.

Animalympics tiene que ver con el Concurso Animal Olímpico, donde los animales de todo el mundo se reúnen para participar en distintas disciplinas olímpicas, desde esquiar en Norteamérica hasta la larguísima carrera de maratón en condiciones húmedas. Con banda sonora excepcional proporcionada por Graham Gouldman, la película es muy diferente a otras caricaturas de la época, siendo más una comedia dramática que un largometraje animado. Acompaña a una tortuga que organiza los procedimientos y una orca compitiendo contra una raya en la competencia de natación. Todo puede pasar en esta peculiar competición.

Enlace de descarga:
Mega.nz.

Información técnica:
General:
Complete name : Animalympics (1980) [Español Latino] [A3930386].mp4
Format : MPEG-4
Format profile : Base Media / Version 2
Codec ID : mp42 (isom/iso2/avc1/mp41)
File size : 1.10 GiB
Duration : 1 h 14 min
Overall bit rate : 2 116 kb/s
Encoded date : UTC 2020-06-20 18:21:13
Tagged date : UTC 2020-06-20 18:21:13
Writing application : HandBrake 1.3.1 2020010400

Video
ID : 1
Format : AVC
Format/Info : Advanced Video Codec
Format profile : [email protected]
Format settings : CABAC / 4 Ref Frames
Format settings, CABAC : Yes
Format settings, Reference : 4 frames
Codec ID : avc1
Codec ID/Info : Advanced Video Coding
Duration : 1 h 14 min
Bit rate : 1 917 kb/s
Width : 702 pixels
Height : 576 pixels
Display aspect ratio : 4:3
Frame rate mode : Constant
Frame rate : 25.000 FPS
Color space : YUV
Chroma subsampling : 4:2:0
Bit depth : 8 bits
Scan type : Progressive
Bits/(Pixel*Frame) : 0.190
Stream size : 1 022 MiB (91%)
Writing library : x264 core 157 r2935 545de2f
Encoding settings : cabac=1 / ref=2 / deblock=1:0:0 / analyse=0x3:0x113 / me=hex / subme=6 / psy=1 / psy_rd=1.00:0.00 / mixed_ref=1 / me_range=16 / chroma_me=1 / trellis=1 / 8x8dct=1 / cqm=0 / deadzone=21,11 / fast_pskip=1 / chroma_qp_offset=-2 / threads=6 / lookahead_threads=1 / sliced_threads=0 / nr=0 / decimate=1 / interlaced=0 / bluray_compat=0 / constrained_intra=0 / bframes=3 / b_pyramid=2 / b_adapt=1 / b_bias=0 / direct=1 / weightb=1 / open_gop=0 / weightp=1 / keyint=250 / keyint_min=25 / scenecut=40 / intra_refresh=0 / rc_lookahead=30 / rc=crf / mbtree=1 / crf=20.0 / qcomp=0.60 / qpmin=0 / qpmax=69 / qpstep=4 / ip_ratio=1.40 / aq=1:1.00
Encoded date : UTC 2020-06-20 18:21:13
Tagged date : UTC 2020-06-20 18:21:13
Color range : Limited
Color primaries : BT.601 PAL
Transfer characteristics : BT.709
Matrix coefficients : BT.601
Codec configuration box : avcC

Audio
ID : 2
Format : AAC LC
Format/Info : Advanced Audio Codec Low Complexity
Codec ID : mp4a-40-2
Duration : 1 h 14 min
Bit rate mode : Constant
Bit rate : 192 kb/s
Channel(s) : 1 channel
Channel layout : C
Sampling rate : 48.0 kHz
Frame rate : 46.875 FPS (1024 SPF)
Compression mode : Lossy
Stream size : 103 MiB (9%)
Title : Mono
Default : Yes
Alternate group : 1
Encoded date : UTC 2020-06-20 18:21:13
Tagged date : UTC 2020-06-20 18:21:13

Falta: subir la banda sonora.

 
Última edición:
mastersenseye

mastersenseye

Miembro
Registrado
15 Ene 2021
Mensajes
92
Muy bueno no conocia esta seria la descargare
 
SGTBarbone

SGTBarbone

Uranium Reseller ☢️
Miembro del Staff
Registrado
28 Mayo 2020
Mensajes
724
No recuerdo haberla visto, me la voy a descargar!
 
OP
UCrest

UCrest

«One Life To Live»
Registrado
11 Ene 2021
Mensajes
318
Yo tampoco supe de este filme hasta que un amigo mío de la infancia me la enseñó en su reproductora de VHS a mediados de los 90's. A mí me encantó. No es una obra maestra de la animación -- lejos está de serlo -- pero sí es muy entretenida y fue una obra rara muy rara de ver en aquellos tiempos y ahora todavía más. Tengo un par más de joyitas muy raras de la animación por subir a la web. Y otra película que sí puede considerarse obra maestra de su época. Así que, pronto las subiré.
 
G

germanpbgggg

Recién Llegado
Registrado
11 Abr 2021
Mensajes
1
Dios mío no puedo creer que la tienen aquí esta película es de mis tiempo tengo meses pero meses casi el año buscandola... en audio español...... dios miooooo gracias. creo que rejuvenecí como 25 años. xD
 
OP
UCrest

UCrest

«One Life To Live»
Registrado
11 Ene 2021
Mensajes
318
¡Pues, compañero @germanpbgggg a disfrutarla! ;)(y)
 
Arriba